<?xml version="1.0" standalone="no"?>
<!DOCTYPE svg PUBLIC "-//W3C//DTD SVG 1.1//EN" "http://www.w3.org/Graphics/SVG/1.1/DTD/svg11.dtd" >
<svg xmlns="http://www.w3.org/2000/svg">
  <metadata>
    Created by FontPrep 20130207 at Tue Sep  5 09:53:09 2017
    By Jan Drewniak
    Copyright (c) Olivier Gourvat - Mostardesign Studio, 2012. All rights reserved.
  </metadata>
  <defs>
    <font id="e4c89524dbd560d3fb57d26f725b5888" horiz-adv-x='1024' >
      <font-face
        font-family="SofiaPro-Bold"
        font-weight="700"
        font-stretch="normal"
        units-per-em="2048"
        panose-1="2 0 8 3 0 0 0 0 0 0"
        ascent="1544"
        descent="-504"
        x-height="956"
        cap-height="1411"
        bbox="-203 -483.028 1901.03 1642"
        underline-thickness="102"
        underline-position="-102"
        unicode-range="U+0020-007D"
      />
      <missing-glyph horiz-adv-x="1024"
      />
      <glyph glyph-name=".notdef" horiz-adv-x="1024"
      />
      <glyph glyph-name=".null" horiz-adv-x="0"
      />
      <glyph glyph-name="nonmarkingreturn" horiz-adv-x="681"
      />
      <glyph glyph-name="space" unicode=" " horiz-adv-x="499"
      />
      <glyph glyph-name="exclam" unicode="!" horiz-adv-x="579"
             d="M467 151q0 -75 -53 -122q-49 -49 -123 -49t-127 49q-51 49 -51 123t51 122q53 48 127 48t123 -50q53 -46 53 -121zM174 426l-41 985h316l-41 -985h-234z" />
      <glyph glyph-name="quotedbl" unicode="&#x22;" horiz-adv-x="747"
             d="M596 803h-156l-22 608h200zM307 803h-155l-23 608h201z" />
      <glyph glyph-name="numbersign" unicode="#" horiz-adv-x="1480"
             d="M895 866h-209l-104 -344h206zM1284 1411l-108 -356h235l-53 -189h-236l-106 -344h235l-55 -188h-233l-109 -334h-223l104 334h-209l-106 -334h-221l106 334h-233l53 188h231l105 344h-230l54 189h231l107 356h227l-107 -356h207l109 356h225z" />
      <glyph glyph-name="dollar" unicode="$" horiz-adv-x="1177"
             d="M518 1642h150v-221q180 -25 282 -139q109 -109 109 -287h-299q0 74 -47 117q-49 43 -133 43t-134 -41q-51 -37 -51 -100q0 -100 152 -144l168 -53q397 -115 387 -426q-2 -180 -127 -287q-127 -104 -307 -122v-236h-150v236q-200 20 -318 138t-118 294h301q2 -74 59 -123
q58 -47 150 -47t148 40t60 101t-34 102q-41 39 -135 66l-170 47q-365 113 -365 406q0 172 120 286t302 131v219z" />
      <glyph glyph-name="percent" unicode="%" horiz-adv-x="1417"
             d="M965 252q-1 -47 29 -77t77 -30q73 0 101 67t-25 116q-49 52 -115 24t-67 -100zM1070 526q114 0 195 -81t81 -195t-80 -193q-84 -77 -195 -77t-194 77q-78 84 -78 195t78 194q79 80 193 80zM346 1190q-45 0 -76 -32q-30 -32 -30 -77t30 -75t75 -31q46 0 78 31q32 32 32 76
t-32 76t-77 32zM345 1356q114 0 195 -80t81 -195t-80 -194q-84 -78 -195 -78t-194 78q-78 85 -78 195t78 194q79 80 193 80zM1104 1341l-660 -1341h-141l660 1341h141z" />
      <glyph glyph-name="ampersand" unicode="&#x26;" horiz-adv-x="1421"
             d="M870 510v113h-241q-129 0 -178 -74q-51 -68 -35 -135q33 -156 213 -156q78 0 162 59q79 62 79 193zM586 -20q-205 0 -344 114q-137 117 -138 297q0 276 234 361q-78 25 -129 100q-49 80 -49 180q0 154 116 271q117 117 295 124q252 12 404 -182l-242 -147q-53 53 -117 53
t-104 -40t-39 -99q0 -17 10 -58q8 -20 25 -49q18 -20 49 -37q39 -16 80 -16h233v160h265v-160h163v-229h-163v-209q-1 -119 33 -153t157 -34v-247q-188 2 -275 36t-122 140q-36 -80 -142 -128t-200 -48z" />
      <glyph glyph-name="quotesingle" unicode="'" horiz-adv-x="458"
             d="M307 803h-155l-23 608h201z" />
      <glyph glyph-name="parenleft" unicode="(" horiz-adv-x="794"
             d="M729 1427v-223q-103 0 -197 -104t-153 -280t-60 -353q0 -274 127 -500q129 -223 283 -223v-221q-279 0 -464 265t-185 678t184 687q189 274 465 274z" />
      <glyph glyph-name="parenright" unicode=")" horiz-adv-x="794"
             d="M66 -477v221q156 0 280 223q129 221 129 500q0 178 -58 350t-155 283q-98 104 -196 104v223q279 0 462 -274q186 -272 186 -688t-186 -676q-183 -266 -462 -266z" />
      <glyph glyph-name="asterisk" unicode="*" horiz-adv-x="974"
             d="M492 913l-156 -225l-156 119l168 207l-258 73l64 191l247 -98l-16 268h205l-19 -266l252 96l60 -191l-256 -69l170 -213l-160 -113z" />
      <glyph glyph-name="plus" unicode="+" horiz-adv-x="1042"
             d="M942 430h-317v-317h-209v317h-316v209h316v315h209v-315h317v-209z" />
      <glyph glyph-name="comma" unicode="," horiz-adv-x="579"
             d="M186 -276l-184 69q76 103 119 245t41 286h289q-3 -216 -85 -368t-180 -232z" />
      <glyph glyph-name="hyphen" unicode="-" horiz-adv-x="972"
             d="M848 391h-723v225h723v-225z" />
      <glyph glyph-name="period" unicode="." horiz-adv-x="571"
             d="M463 151q0 -75 -53 -122q-49 -49 -123 -49t-127 49q-51 49 -51 123t51 122q53 48 127 48t123 -50q53 -46 53 -121z" />
      <glyph glyph-name="slash" unicode="/" horiz-adv-x="1024"
             d="M59 0l678 1411h228l-678 -1411h-228z" />
      <glyph glyph-name="zero" unicode="0" horiz-adv-x="1236"
             d="M621 1090q-215 0 -215 -416t213 -416t213 416t-211 416zM119 674q0 694 502 694q283 0 395 -205q102 -182 102 -489t-102 -490q-113 -205 -395 -204q-502 0 -502 694z" />
      <glyph glyph-name="one" unicode="1" horiz-adv-x="772"
             d="M596 0h-287v961l-229 -99v252l516 246v-1360z" />
      <glyph glyph-name="two" unicode="2" horiz-adv-x="1122"
             d="M977 270v-270h-873v156l551 653q72 85 72 147t-45 100t-123 38t-125 -54q-53 -47 -65 -133l-263 45q31 193 156 305q127 111 311 111q185 0 313 -115t128 -293t-142 -339l-309 -351h414z" />
      <glyph glyph-name="three" unicode="3" horiz-adv-x="1130"
             d="M387 582v245h141q131 0 131 146q0 47 -36 88q-37 41 -99 41q-94 0 -141 -74l-231 141q61 98 174 154q117 53 243 45q174 -8 288 -120t110 -257q0 -76 -45 -149q-49 -72 -127 -113q109 -39 173 -146t56 -218q-16 -172 -172 -285q-158 -111 -356 -96q-143 10 -256 86
q-117 74 -172 194l251 125q23 -47 81 -87t125 -43t123 42t63 102q12 12 -15 101q-8 33 -53 57q-49 23 -115 21h-141z" />
      <glyph glyph-name="four" unicode="4"
             d="M1139 543v-242h-170v-301h-289v301h-641l627 1040h303v-798h170zM680 543v418l-250 -418h250z" />
      <glyph glyph-name="five" unicode="5" horiz-adv-x="1212"
             d="M563 266q113 0 189 60t77 156q0 97 -67 153q-63 57 -180 57q-201 0 -295 -147l-158 82l111 714h786v-262h-559l-35 -217q76 70 254 70t304 -120t126 -338t-150 -356t-403 -138q-139 0 -267 74t-208 196l242 156q39 -60 103 -100t130 -40z" />
      <glyph glyph-name="six" unicode="6" horiz-adv-x="1200"
             d="M624 252q73 0 125 52t52 123t-53 124t-124 53t-123 -52t-52 -125t51 -124t124 -51zM686 864q160 0 286 -120t126 -324t-133 -322t-338 -118t-344 126q-135 129 -154 340q-22 193 10 409q33 216 160 374q132 147 373 139q295 -12 413 -260l-268 -115q-51 106 -155 107
q-134 -4 -196 -118t-50 -269q14 45 86 98t184 53z" />
      <glyph glyph-name="seven" unicode="7" horiz-adv-x="1126"
             d="M88 1077v264h1012l-592 -1341h-326l473 1077h-567z" />
      <glyph glyph-name="eight" unicode="8" horiz-adv-x="1220"
             d="M473 983q0 -57 37 -92t100 -35q62 0 100 35t38 92t-39 90q-37 37 -99 37t-98 -37q-39 -33 -39 -90zM610 645q-104 1 -164 -57t-59 -142t65 -142t158 -58t159 58t65 142t-62 140q-58 59 -162 59zM197 1004q-1 144 121 254t292 110t293 -111q123 -105 123 -253t-98 -236
q88 -51 140 -141t52 -197q0 -190 -148 -320t-362 -130t-362 129q-147 133 -148 321q0 113 52 197q49 88 141 141q-96 92 -96 236z" />
      <glyph glyph-name="nine" unicode="9" horiz-adv-x="1198"
             d="M578 1095q-70 0 -122 -52q-52 -53 -52 -125t50 -123q52 -51 125 -51t125 52t52 123t-54 123t-124 53zM518 483q-162 0 -287 119t-125 323q0 203 132 323t341 120q208 0 343 -127t153 -340q22 -193 -11 -410t-159 -372q-133 -149 -373 -139q-295 12 -413 260l268 114
q51 -106 149 -106t158 61q104 106 94 326q-53 -152 -270 -152z" />
      <glyph glyph-name="colon" unicode=":" horiz-adv-x="630"
             d="M139 805q0 74 51 123t125 49t125 -49q52 -49 52 -123t-52 -123q-53 -47 -125 -47t-125 47q-51 49 -51 123zM139 153q0 75 51 119q51 50 125 50t125 -50q52 -46 52 -120t-52 -123t-125 -49q-74 0 -125 49t-51 124z" />
      <glyph glyph-name="semicolon" unicode=";" horiz-adv-x="626"
             d="M156 805q0 74 51 123t125 49t125 -49t51 -123t-51 -123q-53 -47 -125 -47t-125 47q-51 49 -51 123zM205 -276l-185 69q74 99 118 245t42 286h289q-2 -216 -84 -368t-180 -232z" />
      <glyph glyph-name="less" unicode="&#x3c;" horiz-adv-x="1277"
             d="M1122 106l-1028 394v229l1028 393l2 -225l-741 -283l741 -282z" />
      <glyph glyph-name="equal" unicode="=" horiz-adv-x="1220"
             d="M139 305v201h942v-201h-942zM1081 918v-201h-942v201h942z" />
      <glyph glyph-name="greater" unicode="&#x3e;" horiz-adv-x="1277"
             d="M156 1122l1028 -393v-229l-1028 -394l-2 226l741 282l-741 283z" />
      <glyph glyph-name="question" unicode="?" horiz-adv-x="1015"
             d="M600 151q0 -71 -51 -122q-55 -49 -128 -49t-124 49t-51 123t51 122q53 48 125 48t125 -50t53 -121zM655 1031q0 44 -41 77q-40 33 -106 33t-102 -39q-41 -39 -41 -103h-287q0 195 119 312t313 117t312 -108q120 -107 120 -292q0 -143 -74 -246q-78 -102 -200 -141
q-63 -18 -85 -57t-22 -113l-4 -45h-278l-5 45q0 147 16 212t58 108q45 41 150 92l82 35q47 25 61 47t14 66z" />
      <glyph glyph-name="at" unicode="@" horiz-adv-x="1974"
             d="M1378 266q0 -123 124 -123q56 0 108 41q45 41 65 111q41 127 41 268q0 293 -217 488t-517 195t-504 -211q-204 -210 -204 -508t203 -504q205 -205 500 -205h67v-183h-67q-373 1 -629 261t-256 632t257 636q257 263 628 263q240 7 456 -107t343 -318t125 -439
q0 -86 -21 -198q-27 -106 -65 -193q-45 -92 -127 -150t-202 -59q-120 0 -208 78q-84 80 -84 238v258q0 100 -70 170q-70 69 -168 69t-168 -70t-70 -167q0 -98 70 -168t165 -70t165 51v-192q-84 -39 -162 -39q-170 0 -295 120t-124 296t123 298q122 121 294 121t293 -114
q125 -113 131 -285v-291z" />
      <glyph glyph-name="A" unicode="A" horiz-adv-x="1349"
             d="M1044 0l-124 334h-488l-125 -334h-319l524 1411h326l522 -1411h-316zM674 1085l-144 -491h293z" />
      <glyph glyph-name="B" unicode="B" horiz-adv-x="1304"
             d="M750 606h-283v-342h289q72 0 112 52t39 122t-43 119t-114 49zM467 1147v-293h235q56 0 94 40t38 108t-35 106q-31 39 -99 39h-233zM1149 1018q0 -84 -48 -156t-145 -108q129 -33 198 -128t69 -194q0 -182 -123 -307t-328 -125h-606v1411h565q190 0 305 -106
q113 -109 113 -287z" />
      <glyph glyph-name="C" unicode="C" horiz-adv-x="1431"
             d="M84 702q0 301 203 515q205 211 506 210q181 -1 335 -79t252 -220l-243 -167q-125 184 -344 184q-174 0 -291 -128q-117 -127 -117 -313t117 -314t291 -128q111 0 198 53q88 48 154 142l241 -168q-96 -147 -250 -229t-343 -80q-301 0 -506 210q-203 211 -203 512z" />
      <glyph glyph-name="D" unicode="D" horiz-adv-x="1447"
             d="M719 0h-553v1411h553q297 0 467 -201t170 -507q0 -307 -170 -505t-467 -198zM719 1139h-254v-867h254q162 0 250 121t88 308t-88 313t-250 125z" />
      <glyph glyph-name="E" unicode="E" horiz-adv-x="1179"
             d="M1077 0h-911v1411h893v-264h-594v-322h520v-260h-520v-301h612v-264z" />
      <glyph glyph-name="F" unicode="F" horiz-adv-x="1101"
             d="M467 0h-301v1411h883v-264h-582v-322h461v-262h-461v-563z" />
      <glyph glyph-name="G" unicode="G" horiz-adv-x="1548"
             d="M810 1149q-181 0 -304 -131q-121 -134 -121 -318t123 -315t299 -131q123 0 231 68q106 70 111 176h-379v243h725q0 -387 -185 -574q-186 -187 -496 -187t-521 210q-209 211 -209 511t209 513q213 213 514 213q156 0 299 -59q137 -61 231 -172l-221 -190
q-125 143 -306 143z" />
      <glyph glyph-name="H" unicode="H" horiz-adv-x="1435"
             d="M967 836v575h303v-1411h-303v567h-502v-567h-299v1411h299v-575h502z" />
      <glyph glyph-name="I" unicode="I" horiz-adv-x="630"
             d="M166 0v1411h299v-1411h-299z" />
      <glyph glyph-name="J" unicode="J" horiz-adv-x="632"
             d="M-10 -201q176 0 176 195v1417h301v-1417q0 -213 -114 -345t-349 -132q-51 -1 -207 34l27 271q72 -23 166 -23z" />
      <glyph glyph-name="K" unicode="K" horiz-adv-x="1247"
             d="M469 0h-303v1411h303v-463l334 463h352l-534 -698l661 -713h-389l-424 479v-479z" />
      <glyph glyph-name="L" unicode="L" horiz-adv-x="1046"
             d="M995 0h-829v1411h301v-1147h528v-264z" />
      <glyph glyph-name="M" unicode="M" horiz-adv-x="1869"
             d="M510 1411l426 -909l422 909h252l172 -1411h-301l-99 846l-329 -684h-232l-332 684l-100 -846h-301l174 1411h248z" />
      <glyph glyph-name="N" unicode="N" horiz-adv-x="1390"
             d="M924 1411h301v-1411h-269l-491 854v-854h-299v1411h274l484 -844v844z" />
      <glyph glyph-name="O" unicode="O" horiz-adv-x="1599"
             d="M84 702q0 299 207 512q209 213 509 213t508 -213t208 -513t-209 -511q-209 -210 -508 -210t-508 210q-207 213 -207 512zM799 276q176 0 297 126t121 302t-121 302t-297 124q-176 0 -296 -126t-120 -302t120 -301t296 -125z" />
      <glyph glyph-name="P" unicode="P" horiz-adv-x="1257"
             d="M467 0h-301v1411h579q227 0 347 -137q118 -131 118 -326q0 -196 -118 -328t-347 -133h-278v-487zM739 1147h-272v-397h264q76 0 129 59q49 59 49 138t-47 139t-123 61z" />
      <glyph glyph-name="Q" unicode="Q" horiz-adv-x="1613"
             d="M1231 688q0 202 -125 328q-123 129 -300 129t-300 -129q-121 -132 -121 -300t92 -288q96 -117 240 -147q45 -12 121 -13l-113 189l211 125l135 -220q160 124 160 326zM84 701q0 300 209 513q213 213 516 213q303 -1 513 -211t210 -514q0 -176 -83 -332t-224 -259
l135 -226l-211 -127l-152 246q-92 -25 -190 -24q-303 0 -514 210q-209 211 -209 511z" />
      <glyph glyph-name="R" unicode="R" horiz-adv-x="1304"
             d="M467 487v-487h-301v1411h577q227 0 347 -137q122 -136 122 -314t-92 -300t-260 -160l350 -500h-360l-315 487h-68zM729 1147h-262v-397h254q78 0 128 58t50 138t-47 139q-45 62 -123 62z" />
      <glyph glyph-name="S" unicode="S" horiz-adv-x="1191"
             d="M90 414h301q2 -74 60 -123q59 -47 150 -47t147 40t60 101q3 61 -34 102q-41 39 -135 66l-170 47q-365 113 -365 406q0 186 140 303q137 119 346 119t343 -118q134 -116 134 -315h-299q0 74 -47 117q-49 43 -133 43t-133 -41q-51 -37 -52 -100q0 -100 152 -144l168 -53
q397 -115 387 -426q-2 -135 -78 -231q-141 -182 -430 -183q-225 0 -371 121q-141 123 -141 316z" />
      <glyph glyph-name="T" unicode="T" horiz-adv-x="1179"
             d="M438 1141h-381v270h1065v-270h-381v-1141h-303v1141z" />
      <glyph glyph-name="U" unicode="U" horiz-adv-x="1396"
             d="M944 504v907h301v-907q0 -233 -160 -379q-164 -145 -386 -145t-385 144t-162 380v907h305v-907q1 -106 73 -174t170 -68t171 70t73 172z" />
      <glyph glyph-name="V" unicode="V" horiz-adv-x="1191"
             d="M463 0l-430 1411h311l252 -926l250 926h313l-430 -1411h-266z" />
      <glyph glyph-name="W" unicode="W" horiz-adv-x="1814"
             d="M1030 1212l187 -690l276 889h326l-480 -1411h-235l-199 741l-194 -741h-238l-475 1411h324l274 -889l188 690h246z" />
      <glyph glyph-name="X" unicode="X" horiz-adv-x="1347"
             d="M938 1411h358l-444 -659l489 -752h-354l-313 512l-314 -512h-352l488 752l-445 659h361l262 -422z" />
      <glyph glyph-name="Y" unicode="Y" horiz-adv-x="1333"
             d="M819 0h-305v639l-545 772h357l340 -528l344 528h356l-547 -776v-635z" />
      <glyph glyph-name="Z" unicode="Z" horiz-adv-x="1218"
             d="M86 0v227l645 920h-618v264h1007v-227l-651 -920h651v-264h-1034z" />
      <glyph glyph-name="bracketleft" unicode="[" horiz-adv-x="692"
             d="M623 -469h-473v1880h473v-207h-232v-1462h232v-211z" />
      <glyph glyph-name="backslash" unicode="\" horiz-adv-x="1024"
             d="M737 0l-678 1411h228l678 -1411h-228z" />
      <glyph glyph-name="bracketright" unicode="]" horiz-adv-x="692"
             d="M70 1411h473v-1880h-473v211h231v1462h-231v207z" />
      <glyph glyph-name="underscore" unicode="_" horiz-adv-x="1521"
             d="M1399 -270h-1276v204h1276v-204z" />
      <glyph glyph-name="grave" unicode="`" horiz-adv-x="1134"
             d="M567 1104l-303 344h283l225 -344h-205z" />
      <glyph glyph-name="a" unicode="a" horiz-adv-x="1253"
             d="M607 252q97 0 165 63t68 163t-68 164t-161 64t-171 -65q-72 -66 -72 -163q0 -98 72 -162q70 -64 167 -64zM1122 0h-282v109q-43 -61 -124 -95t-155 -32q-197 0 -342 138t-145 359t150 359t337 139q76 0 156 -33t123 -94v106h282v-956z" />
      <glyph glyph-name="b" unicode="b"
             d="M414 0h-283v1477h283v-637q34 61 112 99t168 38q190 0 326 -138q136 -137 137 -361q0 -224 -136 -361t-327 -137q-92 0 -168 36t-112 103v-119zM420 484q0 -99 63 -169q70 -65 161 -65q90 0 154 63t64 165t-63 167q-63 64 -157 64t-159 -62q-63 -64 -63 -163z" />
      <glyph glyph-name="c" unicode="c" horiz-adv-x="1075"
             d="M594 977q125 0 233 -52t183 -151l-232 -166q-60 96 -170 96t-180 -63q-72 -61 -72 -161t71 -164t181 -64t170 96l232 -164q-70 -96 -180 -150t-236 -54q-213 0 -367 141t-153 360q0 219 156 357t364 139z" />
      <glyph glyph-name="d" unicode="d"
             d="M1102 1477v-1477h-283v119q-35 -66 -111 -103t-169 -36q-190 0 -328 137q-135 139 -135 361t137 360t326 139q90 0 169 -38t111 -99v637h283zM813 484q0 99 -63 163q-66 61 -159 61t-157 -62q-64 -64 -63 -166q0 -102 63 -167q62 -63 154 -63t162 65q63 70 63 169z" />
      <glyph glyph-name="e" unicode="e" horiz-adv-x="1126"
             d="M362 563h414q-10 78 -69 120t-131 44t-134 -42q-64 -44 -80 -122zM74 481q0 221 143 359t354 137q211 0 351 -140t141 -364q0 -2 -4 -88h-701q8 -76 78 -118t158 -42q137 0 209 90l207 -141q-133 -195 -437 -194q-211 0 -356 139q-143 141 -143 362z" />
      <glyph glyph-name="f" unicode="f" horiz-adv-x="751"
             d="M659 1477h105v-273h-105q-145 0 -145 -182v-66h193v-225h-193v-731h-287v731h-180v225h180v66q0 219 113 338q114 117 319 117z" />
      <glyph glyph-name="g" unicode="g" horiz-adv-x="1245"
             d="M573 -221q285 0 265 340q-33 -61 -112 -101t-175 -38q-190 0 -336 139q-141 139 -141 358t143 359t334 141q94 0 174 -38t113 -101v118h276v-823q0 -299 -139 -455t-402 -155q-160 0 -282 80q-128 78 -189 217l230 112q26 -63 96 -108t145 -45zM831 481q-1 101 -67 163
t-161 62t-165 -63q-68 -68 -68 -167t68 -164q66 -64 159 -64t165 65q69 68 69 168z" />
      <glyph glyph-name="h" unicode="h" horiz-adv-x="1185"
             d="M416 506v-506h-285v1477h285v-670q29 84 108 125q82 45 160 45q186 0 285 -119q98 -121 98 -338v-520h-285v510q0 86 -53 137q-49 53 -129 53t-132 -49t-52 -145z" />
      <glyph glyph-name="i" unicode="i" horiz-adv-x="544"
             d="M94 1311q0 72 52 119t124 47t125 -47q51 -49 51 -119t-51 -119t-125 -49t-123 49q-53 47 -53 119zM131 956h283v-956h-283v956z" />
      <glyph glyph-name="j" unicode="j" horiz-adv-x="548"
             d="M96 1312q0 71 51 115q51 49 126 49t126 -49q51 -45 51 -115t-52 -120q-52 -49 -125 -49t-126 49q-51 49 -51 120zM55 -481h-174v258h125q129 0 125 151v1028h287v-1022q0 -207 -86 -311t-277 -104z" />
      <glyph glyph-name="k" unicode="k" horiz-adv-x="1077"
             d="M414 0h-283v1477h283v-783l227 262h363l-398 -421l477 -535h-350l-319 379v-379z" />
      <glyph glyph-name="l" unicode="l" horiz-adv-x="546"
             d="M131 0v1477h285v-1477h-285z" />
      <glyph glyph-name="m" unicode="m" horiz-adv-x="1748"
             d="M1185 700q-73 0 -117 -48t-44 -146v-506h-285v516q-4 86 -47 135q-44 49 -114 49t-116 -47t-46 -147v-506h-285v956h285v-139q35 74 100 117q70 41 150 41q227 0 307 -168q105 170 285 170t275 -113t95 -321v-543h-282v510q0 88 -43 139q-45 51 -118 51z" />
      <glyph glyph-name="n" unicode="n" horiz-adv-x="1163"
             d="M416 506v-506h-285v956h285v-139q42 74 116 117t160 43q168 0 258 -105q92 -102 92 -301v-571h-284v510q0 90 -45 140t-121 50q-176 1 -176 -194z" />
      <glyph glyph-name="o" unicode="o" horiz-adv-x="1140"
             d="M569 977q209 0 353 -138q144 -139 145 -359q0 -220 -144 -358q-143 -138 -353 -138t-353 137t-143 359t143 360t352 137zM570 262q92 0 154 62t62 155q0 95 -62 157t-154 62t-153 -62q-63 -62 -63 -156t62 -156t154 -62z" />
      <glyph glyph-name="p" unicode="p"
             d="M131 -469v1425h283v-118q36 66 112 102t168 37q190 0 326 -138q136 -139 137 -361q0 -222 -136 -360t-327 -138q-90 0 -169 38t-111 99v-586h-283zM420 472q0 -100 63 -162t155 -62t161 63q63 66 63 166t-63 166q-68 63 -158 63t-158 -67q-63 -68 -63 -167z" />
      <glyph glyph-name="q" unicode="q"
             d="M593 248q91 0 155 62t63 164q0 101 -66 165q-61 68 -154 68t-157 -64q-63 -66 -63 -166t63 -166q68 -63 159 -63zM817 956h285v-1425h-285v586q-33 -61 -108 -101q-80 -37 -172 -36q-190 0 -326 139q-135 139 -135 360t137 359t324 139q93 -1 171 -37t109 -102v118z" />
      <glyph glyph-name="r" unicode="r" horiz-adv-x="866"
             d="M416 334v-334h-285v956h285v-231q32 119 108 185t163 67q87 0 163 -35l-51 -256q-63 29 -146 29q-237 0 -237 -381z" />
      <glyph glyph-name="s" unicode="s" horiz-adv-x="956"
             d="M474 977q154 0 268 -77t116 -241h-268q-4 84 -109 84q-45 0 -75 -18q-27 -25 -25 -53q4 -51 84 -72l162 -43q106 -29 168 -88q92 -88 92 -190q0 -145 -126 -223t-287 -76q-162 0 -280 89t-120 240h266q4 -45 45 -76q37 -35 90 -33t90 21q33 25 33 56t-20 51
q-25 18 -74 32l-125 33q-201 51 -254 154q-35 82 -33 158q2 106 115 189t267 83z" />
      <glyph glyph-name="t" unicode="t" horiz-adv-x="747"
             d="M504 1323v-367h201v-225h-201v-731h-283v731h-174v225h174v367h283z" />
      <glyph glyph-name="u" unicode="u" horiz-adv-x="1163"
             d="M748 451v505h284v-956h-284v131q-37 -68 -105 -111q-72 -41 -143 -40q-174 0 -276 108t-103 297v571h285v-510q0 -98 51 -144t125 -46t120 50t46 145z" />
      <glyph glyph-name="v" unicode="v" horiz-adv-x="1064"
             d="M653 0h-243l-404 956h303l223 -594l222 594h305z" />
      <glyph glyph-name="w" unicode="w" horiz-adv-x="1562"
             d="M1239 956h303l-336 -956h-237l-189 608l-180 -608h-238l-346 956h303l170 -569l168 569h244l168 -569z" />
      <glyph glyph-name="x" unicode="x" horiz-adv-x="1085"
             d="M8 0l377 518l-315 438h331l144 -211l141 211h330l-316 -438l375 -518h-330l-202 293l-205 -293h-330z" />
      <glyph glyph-name="y" unicode="y" horiz-adv-x="1044"
             d="M733 956h303l-590 -1425h-301l230 567l-369 858h303l211 -542z" />
      <glyph glyph-name="z" unicode="z" horiz-adv-x="1044"
             d="M113 694v262h833v-213l-459 -481h459v-262h-862v211l451 483h-422z" />
      <glyph glyph-name="braceleft" unicode="{" horiz-adv-x="843"
             d="M63 385v172q49 0 89 33q37 37 36 86v325q-4 182 117 296t297 114h174v-207h-180q-70 0 -119 -51t-49 -125v-336q0 -80 -47 -143q-49 -59 -115 -78q66 -18 115 -78q47 -63 47 -143v-313q0 -75 50 -133t118 -58h180v-215h-174q-176 0 -297 114t-117 296v325q0 49 -36 86
q-40 33 -89 33z" />
      <glyph glyph-name="bar" unicode="|" horiz-adv-x="448"
             d="M150 -254v1896h149v-1896h-149z" />
      <glyph glyph-name="braceright" unicode="}" horiz-adv-x="843"
             d="M780 557v-172q-49 0 -88 -33q-37 -37 -37 -86v-325q1 -180 -119 -295t-294 -115h-174v215h180q68 0 118 57t50 134v313q0 80 47 143q49 59 115 78q-66 18 -115 78q-47 63 -47 143v336q0 74 -49 125t-119 51h-180v207h174q174 0 295 -115t118 -295v-325q0 -49 37 -86
q39 -33 88 -33z" />
    </font>
</defs>
</svg>
